曾宝仪 -《想爱》[APE]

曾宝仪 -《想爱》[APE]
  • 片  名  曾宝仪 -《想爱》[APE]
  • 简  介  音乐风格: 流行发行时间: 2000年08月地区: 台湾语言: 普通话
  • 类  别  音乐
  • 小  类  华语音乐


  • 详细介绍专辑中文名: 想爱歌手: 曾宝仪音乐风格: 流行资源格式: APE发行时间: 2000年08月地区: 台湾语言: 普通话简介: 专辑介绍:
    第一张专辑漂亮出击的阿宝,终于在歌迷的苦等下,推出她个人第二张专辑‘想爱’。阿宝回忆去年推出手张专辑的心情,她觉得就像是一股脑地就钻进音乐的世界里。第一次尝试当歌手,无所谓紧不紧张,不过,却也在糊里糊涂中幸运地缔造出不错的成绩。曾宝仪的新歌‘想爱’是由AIMEEMAN作曲,武雄作词,与上一张‘阿宝’专辑的所有歌曲有极大的不同,单纯的钢琴音乐作前导,再注入阿宝轻柔婉约的声音,真真实实的把许多小女人的心情唱出来。
  • 曾宝仪 -《想爱》[APE]_large

精选评论

V0.99 prebeta 4 from 23. January 2008

EAC 抓取日志档案从24. 四月 2009, 4:20

曾宝仪 / 想爱

使用光碟机 :_NEC DVD_RW ND-3540A Adapter: 4 ID: 0

读取模式 : :
: 是
: 否
: 否

读取错误修正: : 0
读取 Lead-In 和 Lead-Out : 否
用静音填充抓取中丢失偏移的取样 : 是
去除首尾静音区块 : 否
: 否
: 已安装外部 ASPI 介面

所用输出模式: : Monkey's Audio Lossless Encoder
: High Lossless Compression
: 高
: 是
: C:Program FilesExact Audio Copymac.exe




| | | |
--------------------------------------------
1 | 0:00.00 | 3:54.20 | 0 | 17569
2 | 3:54.20 | 3:43.35 | 17570 | 34329
3 | 7:37.55 | 4:14.50 | 34330 | 53429
4 | 11:52.30 | 5:02.00 | 53430 | 76079
5 | 16:54.30 | 4:55.45 | 76080 | 98249
6 | 21:50.00 | 4:48.47 | 98250 | 119896
7 | 26:38.47 | 4:04.28 | 119897 | 138224
8 | 30:43.00 | 3:38.65 | 138225 | 154639
9 | 34:21.65 | 4:18.35 | 154640 | 174024
10 | 38:40.25 | 4:40.27 | 174025 | 195051


范围状态及错误

已选择范围

档案名称 I:cdimage.wav

峰值电平 99.9 %
范围质量 100.0 %
复制 CRC E03C238B
复制完成

没有错误发生

状态报告结尾
哈哈,第一名!
这张专辑也很棒!!!
这么清静的帖呢
其实这张很不错的,当年特别喜欢听《想爱》。
推荐一下。
不错,谢谢分享,楼主辛苦了。