《ef - a tale of melodies.原声集》(ef - a tale of melodies.)[ORIGINAL SOUNDTRACK ~elegia~][附12BK][TTA]

《ef - a tale of melodies.原声集》(ef - a tale of melodies.)[ORIGINAL SOUNDTRACK ~elegia~][附12BK][TTA]
  • 片  名  《ef - a tale of melodies.原声集》(ef - a tale of melodies.)[ORIGINAL SOUNDTRACK ~elegia~][附12BK][TTA]
  • 简  介  发行时间: 2008年12月26日
  • 类  别  动漫
  • 小  类  动漫周边


  • 详细介绍中文名: ef - a tale of melodies.原声集英文名: ef - a tale of melodies.别名: ef2;悠久之翼资源格式: TTA版本: [ORIGINAL SOUNDTRACK ~elegia~][附12BK]发行时间: 2008年12月26日地区: 日本简介:
    【簡介】
    这是曾经因遭受地震和大火侵袭,而一度坍塌的街道——音羽。
    而这条街现在,犹如从欧洲的童话中飞出来一般,作为非常美丽的街景复苏了。
    就像是,将那不吉祥的灾难的记忆掩盖起来一般……
    在这片重生的土地上,一个童话般的恋爱物语开始了…
    ef2动画将以「ef - the latter tale.」为主线陈述,
    平行描写两个苦涩的恋爱故事,
    饱富抒情性,相互融合的两个恋爱故事。
    能听到吗?
    ——那真实的旋律……
    【介紹】
    ef - a tale of melodies. ORIGINAL SOUNDTRACK ~elegia~
    * 商品番号: GNCA-1165
    * メディア: アルバムCD
    * 組枚数: 1
    * 発売日: 2008/12/26
    * 価格: 2940円(税込)
    * 内容
    聴こえますか――真実の旋律。 前作「ef - a tale of memories.」から1年、記憶を越えた「想い」が、「音」と共に響き渡る!! 今回も物語を音楽で彩るのは、「天門 柳英一郎」が担当!! 天門 柳英一郎による劇中BGM、OP・ebullient future (TVサイズ)、ED・ミズキ (TVサイズ)、ED・優子 (TVサイズ) を収録(予定)。
    【Artists】
    ELISA (アーティスト) 
    天門 (作曲) 柳英一郎 (作曲)
    【曲目】
    1. Overture/ TVサントラ
    2. ebullient future(English TV-EDIT ver.1)/ ELISA
    3. A moon filled sky/ TVサントラ
    4. The other side of mask/ TVサントラ
    5. Dissembles/ TVサントラ
    6. Separate way/ TVサントラ
    7. Answer of asking oneself/ TVサントラ
    8. Embarrassed/ TVサントラ
    9. Still alive/ TVサントラ
    10. Scary/ TVサントラ
    11. Determined herself/ TVサントラ
    12. Because,he is here./ TVサントラ
    13. Who's problem/ TVサントラ
    14. Abnormal smile/ TVサントラ
    15. Twins,separate place/ TVサントラ
    16. Two standpoints/ TVサントラ
    17. Evening calm/ TVサントラ
    18. Confession/ TVサントラ
    19. A girl whom you deserted/ TVサントラ
    20. 願いのカケラ(TV-EDIT ver.A)/ 雨宮優子(中島裕美子)
    21. Entropy/ TVサントラ
    22. Small revenge/ TVサントラ
    23. Kill and come./ TVサントラ
    24. Why?Why?Why?/ TVサントラ
    25. 笑顔のチカラ(TV-EDIT ver.A)/ 羽山ミズキ(後藤麻衣)
  • 《ef - a tale of melodies.原声集》(ef - a tale of melodies.)[ORIGINAL SOUNDTRACK ~elegia~][附12BK][TTA]_large

精选评论

重磅sofa~
LZ果然是好人,ms我下了很多LZ供的东西了,在此感谢一下
好物,收走......
感谢楼主!!!
好东西,拖走
感谢楼主!!!
ok终于等到了
好东西啊,绝对要支持一下
谢谢LZ,支持楼主
好东西啊,绝对要支持一下
谢谢楼主
好东西啊!
(TV-EDIT ver.A)?
果然应该还有(TV-EDIT ver.!
感觉不错
CUE文件- -
我发誓,以后如果我自己发音乐帖,一定要给出正确的CUE !!!受够了这种每次下音乐都得自己弄一晚上的CUE的感觉!

REM GENRE Soundtrack
REM DATE 2008
REM DISCID 570B8B19
REM COMMENT "ExactAudioCopy v0.99pb4"
PERFORMER "ef - a tale of melodies."
TITLE "ef - a tale of melodies. ORIGINAL SOUNDTRACK ~elegia~"
FILE "ORIGINAL SOUNDTRACK ~elegia~.wav" WAVE
TRACK 01 AUDIO
TITLE "Overture"
PERFORMER "ef - a tale of melodies."
INDEX 01 00:00:00
TRACK 02 AUDIO
TITLE "ebullient future (English TV-EDIT ver.1)"
PERFORMER "ELISA"
INDEX 00 04:20:31
INDEX 01 04:22:44
TRACK 03 AUDIO
TITLE "A moon filled sky"
PERFORMER "ef - a tale of melodies."
INDEX 00 05:55:47
INDEX 01 05:59:60
TRACK 04 AUDIO
TITLE "The other side of mask"
PERFORMER "ef - a tale of melodies."
INDEX 00 08:44:48
INDEX 01 08:48:61
TRACK 05 AUDIO
TITLE "Dissembles"
PERFORMER "ef - a tale of melodies."
INDEX 00 09:23:12
INDEX 01 09:25:25
TRACK 06 AUDIO
TITLE "Separate way"
PERFORMER "ef - a tale of melodies."
INDEX 00 11:39:24
INDEX 01 11:41:37
TRACK 07 AUDIO
TITLE "Answer of asking oneself"
PERFORMER "ef - a tale of melodies."
INDEX 00 16:07:31
INDEX 01 16:09:44
TRACK 08 AUDIO
TITLE "Embarrassed"
PERFORMER "ef - a tale of melodies."
INDEX 00 17:35:62
INDEX 01 17:38:00
TRACK 09 AUDIO
TITLE "Still alive"
PERFORMER "ef - a tale of melodies."
INDEX 00 18:08:21
INDEX 01 18:10:34
TRACK 10 AUDIO
TITLE "Scary"
PERFORMER "ef - a tale of melodies."
INDEX 00 19:39:20
INDEX 01 19:41:33
TRACK 11 AUDIO
TITLE "Determined herself"
PERFORMER "ef - a tale of melodies."
INDEX 00 20:22:67
INDEX 01 20:23:05
TRACK 12 AUDIO
TITLE "Because, he is here."
PERFORMER "ef - a tale of melodies."
INDEX 00 21:52:68
INDEX 01 21:55:06
TRACK 13 AUDIO
TITLE "Who's problem"
PERFORMER "ef - a tale of melodies."
INDEX 00 24:30:35
INDEX 01 24:32:48
TRACK 14 AUDIO
TITLE "Abnormal smile"
PERFORMER "ef - a tale of melodies."
INDEX 00 25:28:74
INDEX 01 25:31:12
TRACK 15 AUDIO
TITLE "Twins, separate place"
PERFORMER "ef - a tale of melodies."
INDEX 00 25:53:34
INDEX 01 25:55:47
TRACK 16 AUDIO
TITLE "Two standpoints"
PERFORMER "ef - a tale of melodies."
INDEX 00 29:26:65
INDEX 01 29:29:03
TRACK 17 AUDIO
TITLE "Evening calm"
PERFORMER "ef - a tale of melodies."
INDEX 00 30:30:40
INDEX 01 30:32:53
TRACK 18 AUDIO
TITLE "Confession"
PERFORMER "ef - a tale of melodies."
INDEX 00 32:10:56
INDEX 01 32:14:69
TRACK 19 AUDIO
TITLE "A girl whom you deserted"
PERFORMER "ef - a tale of melodies."
INDEX 01 35:50:27
TRACK 20 AUDIO
TITLE " 願いのカケラ (TV-EDIT ver.A)"
PERFORMER "雨宮優子(中島裕美子)"
INDEX 00 36:07:17
INDEX 01 36:09:30
TRACK 21 AUDIO
TITLE "Entropy"
PERFORMER "ef - a tale of melodies."
INDEX 00 37:40:12
INDEX 01 37:43:25
TRACK 22 AUDIO
TITLE "Small revenge"
PERFORMER "ef - a tale of melodies."
INDEX 00 38:51:74
INDEX 01 38:54:12
TRACK 23 AUDIO
TITLE "Kill and come."
PERFORMER "ef - a tale of melodies."
INDEX 00 40:55:25
INDEX 01 40:55:38
TRACK 24 AUDIO
TITLE "Why? Why? Why?"
PERFORMER "ef - a tale of melodies."
INDEX 00 44:43:13
INDEX 01 44:45:26
TRACK 25 AUDIO
TITLE "笑顔のチカラ (TV-EDIT ver.A)"
PERFORMER "羽山ミズキ(後藤麻衣)"
INDEX 01 47:45:28

老大,怎么你贴出来的这个我还是用不了啊,foobar和千千都不行。