《战场的女武神主题曲》(Valkyria Chronicles)[OP2 Single - カナシミレンサ][MARIA][附BK][APE+MP3(320Kbps)]

《战场的女武神主题曲》(Valkyria Chronicles)[OP2 Single - カナシミレンサ][MARIA][附BK][APE+MP3(320Kbps)]
  • 片  名  《战场的女武神主题曲》(Valkyria Chronicles)[OP2 Single - カナシミレンサ][MARIA][附BK][APE+MP3(320Kbps)]
  • 简  介  发行时间: 2009年8月12日对白语言: 日语文字语言: 日文
  • 类  别  动漫
  • 小  类  动漫周边


  • 详细介绍中文名: 战场的女武神主题曲英文名: Valkyria Chronicles版本: [OP2 Single - カナシミレンサ][MARIA][附BK][APE+MP3(320Kbps)]发行时间: 2009年8月12日地区: 日本对白语言: 日语文字语言: 日文简介: 【剧情介绍】
    第二次ヨーロッパ(欧洲)大战(E.W.Ⅱ)的开战,之后... 在征历1930年的ヨーロッパ(欧洲)。 大陆被以拥有强大军事力量的「帝国」与「联邦」划分为二。 为了争夺霸权的两国,终于展开了战争。 ヨーロッパ大陆全局卷入了战争之中因此「第二次ヨーロッパ(欧洲)大战」(E.W.Ⅱ)因此而展开。故乡被侵略的时候,集结起来的义勇军出现了。在帝国与连邦之间有一个小国家·ガリア(卡利亚)公国。 以表明中立态度的这个国家被帝国军侵略了。在这样强大军事力量的面前ガリア(卡利亚)军战败了。在首都即将沦陷,已经快到灭亡危机的时刻的ガリア(卡利亚)在ガリア(卡利亚)义勇军小队长出人意料的作战下,帝国军被击退了。这支小队的名字是....第七小队。
    【单曲介绍】
    TVアニメ剧中歌:カナシミレンサ商品番号:SRCL-6969-090812
    ディスク枚数: 1
    価格: 1200円(税込)
    発売日: 2009/08/12
    収録时间: 14 分
    ASIN: B002B5WVIG
    内容绍介
    ガールズバンドの最高峰を目指す6人组MARIAの6枚目のシングル
    MARIA 6枚目のシンク゛ルになります。M1は7月~TVアニメ「戦场のヴァルキュリア」オープニング・テーマ。今回の「切なRock」は、疾走感溢れるロックチューンに仕上がりました!!M2は5月~HBC制作「サン・クロレラクラシック」テーマソング。未来(あした)への光を探して新しい道を刻んでいく、心の奥に静かだけど力强い想いが切ないバラードで表现されています。
    【Artist/Cast】
    MARIA
    【收录曲目】
    1. カナシミレンサ
    2. 未来への轨迹
    3. カナシミレンサ (TV Edit)
    4. カナシミレンサ (Instrumental)
  • 《战场的女武神主题曲》(Valkyria Chronicles)[OP2 Single - カナシミレンサ][MARIA][附BK][APE+MP3(320Kbps)]_large

精选评论

多谢楼主
谢了
终于有下载了,感谢LZ
最近最期待的动漫主题曲之一,感谢分享收下了
这个封面很可爱
这个封面怎么拍的
就等这个了!LZ好人
果然准时!感谢楼主!
这个也出来了,支持啊!!!!!!!!!!!!!
CUE修复

PERFORMER "MARIA"
TITLE "TVアニメ剧中歌:カナシミレンサ"
FILE "CDImage.ape" WAVE
TRACK 01 AUDIO
TITLE "カナシミレンサ"
PERFORMER "MARIA"
ISRC JPSR00901861
INDEX 01 00:00:00
TRACK 02 AUDIO
TITLE "未来への轨迹"
PERFORMER "MARIA"
ISRC JPSR00901161
INDEX 00 03:50:59
INDEX 01 03:52:10
TRACK 03 AUDIO
TITLE "カナシミレンサ (TV Edit)"
PERFORMER "MARIA"
ISRC JPSR00901862
INDEX 00 08:12:52
INDEX 01 08:16:40
TRACK 04 AUDIO
TITLE "カナシミレンサ (Instrumental)"
PERFORMER "MARIA"
ISRC JPSR00901863
INDEX 00 09:46:53
INDEX 01 09:51:31
无损要挺住.......感谢LZ.......嘿嘿
封面满好看D~~~
左上角那个爆炸头。。。有点囧~~~
终于找到了,谢谢了。