李烁 -《好梦留人》[APE]

李烁 -《好梦留人》[APE]
  • 片  名  李烁 -《好梦留人》[APE]
  • 简  介  发行时间: 2006年地区: 大陆语言: 普通话
  • 类  别  音乐
  • 小  类  华语音乐


  • 详细介绍专辑中文名: 好梦留人歌手: 李烁资源格式: APE发行时间: 2006年地区: 大陆语言: 普通话简介:
    专辑介绍:
    当今情歌公主 李烁,典雅亮丽、有声有色、纯美演唱,更上一层楼 柏菲2006原创大碟,全新製作演绎唐宋风采,倾心之作,唯美呈献!
    秉承柏菲一贯高品质的製作,运用最新SUMMING 模拟合成技术,24Bit 192KHz高採样双路CD复合直灌母版声场宽广,音色纯净柏菲出品,品质保证!(*转)
  • 李烁 -《好梦留人》[APE]_large

精选评论

太美了,回味无穷啊!
顶上去,我最喜欢的发烧歌手之一
下来听听看
终于能下ape了,mp3听很久了
我顶:我老婆的声音有这么美妙就…………好啰!!!短命几年都愿意………!啊………………!
楼上的,说得这么牛吗?不会是骗人的吧.
好音乐!特别喜欢与中国古典文化和诗词相结合的!
头一次听到李烁的歌,太像邓丽君了!
邓丽君的歌,总感到对配器不太满意,有点简陋的感觉。但是会让你对邓丽君的声音更多专注。李烁的碟子则不同,配器更丰满一些。
这个源不多,帮忙顶一下!
请楼主给个cue 文档,下不了。谢谢!
个人认为”水莲花——徐志摩·沙扬娜拉“是这张专辑最好听的一首歌
为了个cue挂了一星期。我做下好人,把cue贴出来吧。

REM DATE 2006
REM COMMENT Exact Audio Copy
PERFORMER "李烁"
TITLE "好梦留人"
FILE "李烁.-.[好梦留人].专辑.(ape).ape" WAVE
TRACK 01 AUDIO
TITLE "好夢留人"
PERFORMER "李烁"
INDEX 01 00:00:00
TRACK 02 AUDIO
TITLE "水蓮花"
PERFORMER "李烁"
INDEX 00 03:49:19
INDEX 01 03:50:72
TRACK 03 AUDIO
TITLE "春秋"
INDEX 00 08:00:72
INDEX 01 08:02:47
TRACK 04 AUDIO
TITLE "香如故"
INDEX 00 12:01:30
INDEX 01 12:04:22
TRACK 05 AUDIO
TITLE "葬花"
INDEX 00 16:33:63
INDEX 01 16:37:42
TRACK 06 AUDIO
TITLE "天涯芳草"
INDEX 00 21:27:05
INDEX 01 21:30:07
TRACK 07 AUDIO
TITLE "燈火闌珊處"
INDEX 00 25:44:07
INDEX 01 25:47:30
TRACK 08 AUDIO
TITLE "人比黃花瘦"
INDEX 00 30:33:05
INDEX 01 30:35:72
TRACK 09 AUDIO
TITLE "柔情似水"
INDEX 00 34:38:25
INDEX 01 34:41:27
TRACK 10 AUDIO
TITLE "許多愁"
INDEX 00 38:57:66
INDEX 01 39:00:34
TRACK 11 AUDIO
TITLE "別亦難"
INDEX 00 42:38:53
INDEX 01 42:42:27
TRACK 12 AUDIO
TITLE "月滿西樓"
PERFORMER "李烁"
INDEX 00 48:19:54
INDEX 01 48:23:62
喜欢李烁的歌,柏菲的音乐不错!
下来听听