Revo&梶浦由记 -《Dream Port》单曲[APE]

Revo&梶浦由记 -《Dream Port》单曲[APE]
  • 片  名  Revo&梶浦由记 -《Dream Port》单曲[APE]
  • 简  介  音乐风格: 流行发行时间: 2008年4月29日地区: 日本语言: 日语
  • 类  别  音乐
  • 小  类  日韩音乐


  • 详细介绍专辑中文名: Dream Port别名: “Dream Port 2008”主题曲歌手: Revo&梶浦由记音乐风格: 流行资源格式: APE版本: 单曲发行时间: 2008年4月29日地区: 日本语言: 日语简介: 专辑介绍:
    这次出击的真是ACG界的两位大牌啊,说是强强联合一点也不过分。revo的物语幻想风格与梶浦的World风相得益彰。感觉歌曲的宏观框架是由revo支撑的,微观细节部分由梶浦来负责。歌曲中出现的多重和声一听就知道是梶浦惯用的元素,使得歌曲更加气势磅礴,又给人带来海市蜃楼般的听觉意象。第二首歌曲以带有田园色彩的长笛开场,鲜明的鼓点随之而起,伴着和声的提琴声优美动人。在吉他清脆拨弦声的引领下,歌曲进入了另一境界,凄美而壮阔。浮尘静空的幻象,脉脉低回的音影,一切都是那么辉煌奇幻。
    梶浦由记想必各位已经很熟悉了,这位日本四大才女之一的女音乐创作人出道多年留下了大量经典美妙的音乐。而“幻想乐团Sound Horizon”的创始者Revo也在音乐界冠有“鬼才”之名,作为“国王”君临天下深受广大“国民”爱戴。这两位现在处于音乐界顶峰的“天才”和“鬼才”在5月15日在东京千代田举行了一场堪称顶级的演唱会“Dream Port 2008”,这场演唱会对于同时喜爱两人的粉丝来说可能是梦幻般的场景吧!
    砂尘の彼方へ
    作词:Revo+梶浦由记
    作曲:Revo+梶浦由记
    编曲:Revo
    歌:Sound Horizon + Fiction Junction
    ナレーター:Ike Nelson
    Beyond the dust storm, an extended horizon...
    within each wave, everlasting melody.)
    Chorus:
    旅人の季节は常に 过去へと现在を夺うけど
    あの日重ねた歌声は今もまだ响いてる…
    旅人的季节通常都 向著过去而将现在剥夺
    那天重迭的歌声此刻依然回响
    KAORI:
    伤迹も愈せずに仆等は 何を待つのだろう
    Good times for blend もう一度と廻ると信じていたい
    伤痕全部愈合的我们 正在等待著什麽
    Good times for blend 想要去相信再一次的轮回
    WAKANA:
    砂の海で水に焦がれ 爪を剥いでも祈りは井戸の底
    キミの名は幻想(Dream) 儚き调べ(Melody) 唇が触れる程に远离る
    沙尘的海中水分乾涸 即使手指磨破也会祈祷於井底
    你名为幻想(Dream) 虚幻的旋律(Melody) 在双唇所接触之时远去
    Chorus:
    鸣り止まない胸の鼓动(Rhythm) あと一つだけ丘を越え
    砂に祈りを埋めても この手を伸ばすから どうか
    fly me…
    无法停止低鸣的心中的鼓动(Rhythm)跨越仅余一座的山丘
    即使祈祷之声被掩埋在沙砾中 也会伸出这双手 请你
    让我高飞…
    (Dream Port)
    KEIKO:
    足迹も残さずに仆等は 何処へ行くのだろう
    Good-bye dear friend もう一度会えると信じていたい
    留下道道足迹的我们 正朝向何处行去
    Good-bye dear friend 想要去相信再一次的相会
    YUUKI:
    砂の海が暮れ行く顷 全ての叫びが目指す辉き
    キミの名は幻想(Dream) 遥かな调べ(Melody) 唇に歌を一つ灯して
    沙尘的海边夕暮时分 所有的呼唤都化作引导的光辉
    你名为幻想(Dream) 遥远的旋律(Melody) 在双唇边点亮唯一的歌
    Chorus:
    震えるのは 夜の共鸣(Harmony) 孤独は声を冻らせる
    月に叫びが届くなら この身を捧ぐから どうか
    fly me…
    持续颤动不停的黑夜的共鸣(Harmony)孤独之感将音声冻结
    如果呼唤之音能够传达至明月 便会献出这身躯 请你
    让我高飞…
    (Fly me and take me together, and now take me there with you, fly me....
  • Revo&梶浦由记 -《Dream Port》单曲[APE]_large

精选评论

超经典的 顶
同一人发布有损与无损
必须合并~

您好,经过仔细查找问题,发现您所说的“同一人发布”问题并不存在,请仔细核实

确实 工作疏忽 呵呵
嘛~ 不过格式有问题哦
请仔细核对本版规则
(文件名与表单格式)
支持加精!!
1. 文件名处
Revo&梶浦由记.-.[Dream.Port].单曲.(APE).ape
Revo&梶浦由记.-.[Dream.Port].单曲.(APE).cue
2. 发行时间请明细
3. 遗漏了加粗的专辑介绍~
4. 正文部分没有特殊含义 只空一行
5. 为防止无损中假档的发布,要求:
①整轨压制必须在回帖中加上CUE文件内容以及EAC的抓轨日志,LOG缺失则必须以频谱截图代替。
②分轨压制必须打包发布,压缩为RAR文件,并在回帖中说明此无损为分轨模式,同时必须贴上EAC的抓轨日志或者频谱截图。

总之,阅读版规需仔细,尤其是是红字部分。

感谢管理员如此耐心指点,已修改完毕

PERFORMER "Revo&梶浦由记"
TITLE "Single-砂尘の彼方へ…"
FILE "Sound Horizon.-.[Single-砂尘の彼方へ…]单曲(APE).ape" WAVE
TRACK 01 AUDIO
TITLE "砂尘の彼方へ…"
PERFORMER "01.Sound Horizon"
FLAGS DCP
INDEX 01 00:00:00
TRACK 02 AUDIO
TITLE "砂尘の彼方へ…"
PERFORMER "02.Sound Horizon"
FLAGS DCP
INDEX 00 07:23:02
INDEX 01 07:24:02
1. 还是专辑介绍的问题
2. 如果可以的话 频谱信息放在回帖中
3. 要申请精华 咱才可以加精
天呐 这个为什么下得这么慢 呜~
只要下载的我都顶下 谢谢分享
cue做得稍微有点问题。。
歌曲名有问题
应该这样吧
PERFORMER "Revo&梶浦由记"
TITLE "Single-砂尘の彼方へ…"
FILE "Revo&梶浦由记.-.[Dream.Port].单曲.(APE).ape" WAVE
TRACK 01 AUDIO
TITLE "砂尘の彼方へ...(Revo&梶浦由记Presents 「Dream Port 2008」メインテーマ)"
PERFORMER "01.Sound Horizon"
FLAGS DCP
INDEX 01 00:00:00
TRACK 02 AUDIO
TITLE "sand dream(メインテーマ别アレンジバージョン) "
PERFORMER "02.Sound Horizon"
FLAGS DCP
INDEX 00 07:23:02
INDEX 01 07:24:02
我还有个砂尘の彼方へ的live,也很不错
歌词中的keiko 和 wakana 搞反了