《死刑判决主题曲》(NEEDLESS)[ED2 Single-WANTED!for the love][ニードレス★ガールズ+][附BK][FLAC+MP3(320Kbps)]

《死刑判决主题曲》(NEEDLESS)[ED2 Single-WANTED!for the love][ニードレス★ガールズ+][附BK][FLAC+MP3(320Kbps)]
  • 片  名  《死刑判决主题曲》(NEEDLESS)[ED2 Single-WANTED!for the love][ニードレス★ガールズ+][附BK][FLAC+MP3(320Kbps)]
  • 简  介  发行时间: 2009年11月11日对白语言: 日语文字语言: 日文
  • 类  别  动漫
  • 小  类  动漫周边


  • 详细介绍中文名: 死刑判决主题曲英文名: NEEDLESS版本: [ED2 Single-WANTED!for the love][ニードレス★ガールズ+][附BK][FLAC+MP3(320Kbps)]发行时间: 2009年11月11日地区: 日本对白语言: 日语文字语言: 日文简介: 【故事介绍】
    第三次世界大战使日本各地出现了被称为“BLACKSPOT”的巨大污染区域。这里被人们当作废墟隔离了起来,然而不知从什么时候起,这片土地上开始出现了居住者。在战火中失去家园的人、流浪者、被警察追逐的犯罪者纷纷聚集到此以求生存,他们中的一部分人不但克服了这片土地的毒害污染,而且滋生出不可思议的能力。火、风、重力……操纵者这些超自然之力“fragment”的人被生活在安全的非污染区域的居住者称为“NEEDLESS”。这是破坏神父亚当·布雷德一行人和率领着神秘大型制药会社“西米恩”的亚当·阿克莱特的战斗物语。而现在,拥有超越人类力量的“NEEDLESS”们颠覆常理打响了战斗!
    【单曲介绍】
    TVアニメ NEEDLESS 新EDテーマ:WANTED!for the love商品番号:LASM-4029
    価格:1143円(税込)
    発売日:2009/11/11
    ディスク枚数: 1
    【Artist/Cast】
    畑亜贵 (作词者)
    綾原圭二 (作曲者)
    高田暁 (编曲者)原田胜通 (编曲者)
    イヴ(喜多村英梨) (アーティスト)ディスク(加藤英美里) (アーティスト)未央(牧野由依) (アーティスト)梔(茅原実里) (アーティスト)
    内容
    可爱さ! 过激さ! 萌えにお色気と危ない魅力満载で世间を沸かせた『NEEDLESS』の新エンディングテーマを饰るのは、もちろんニードレス★ガールズ+!
    【收录曲目】
    1 WANTED! For the love
    2 わたしはジュースでココナッツ
    3 WANTED! for the love ~House in the meee!mix~
    4 WANTED! For the love(off vocal)
    5 わたしはジュースでココナッツ(off vocal)
  • 《死刑判决主题曲》(NEEDLESS)[ED2 Single-WANTED!for the love][ニードレス★ガールズ+][附BK][FLAC+MP3(320Kbps)]_large

精选评论

期待楼主发布·······
我要去打包收购
K姐姐……好等啊……
很XE啊
额....
楼主终于是发得最早的了
我一定支持楼主的

有点不明白,呵呵
9.30号发布0 0那个时候我还是K姐后面的小跟班呢……
虽然现在从跟班升级为手下了- -不过貌似没变化~
看过动画,一定要连它的配音乐下来听听,多谢分享!
又是我手写的CUE
按原来的将乱码都改了
CATALOG 4540774600564
PERFORMER "ニードレス★ガールズ+ [イヴ(喜多村英梨)?ディスク(加藤英美里)?セツナ(後藤沙緒里)?未央(牧野由依)?梔(茅原実里)]"
TITLE "WANTED! For the love"
FILE "wanted_for_the_love.flac" WAVE
TRACK 01 AUDIO
TITLE "WANTED! For the love"
PERFORMER "ニードレス★ガールズ+ [イヴ(喜多村英梨)?ディスク(加藤英美里)?セツナ(後藤沙緒里)?未央(牧野由依)?梔(茅原実里)]"
ISRC JPI100902580
INDEX 01 00:00:00
TRACK 02 AUDIO
TITLE "わたしはジュースでココナッツ"
PERFORMER "KILLER GIRLS [ほのか(井口裕香)?なつき(真堂圭)?結愛(竹達彩奈)]"
ISRC JPI100902581
INDEX 00 03:44:58
INDEX 01 03:47:58
TRACK 03 AUDIO
TITLE "WANTED! for the love ~House in the meee!mix~"
PERFORMER "ニードレス★ガールズ+ [イヴ(喜多村英梨)?ディスク(加藤英美里)?セツナ(後藤沙緒里)?未央(牧野由依)?梔(茅原実里)]"
ISRC JPI100902582
INDEX 00 08:59:28
INDEX 01 09:02:28
TRACK 04 AUDIO
TITLE "WANTED! For the love(off vocal)"
PERFORMER " "
ISRC JPI100902583
INDEX 00 12:56:74
INDEX 01 12:59:74
TRACK 05 AUDIO
TITLE "わたしはジュースでココナッツ(off vocal)"
PERFORMER " "
ISRC JPI100902584
INDEX 00 16:44:58
INDEX 01 16:47:58