东方神起(동방신기) -《Hug》单曲[APE]

东方神起(동방신기) -《Hug》单曲[APE]
  • 片  名  东方神起(동방신기) -《Hug》单曲[APE]
  • 简  介  音乐风格: 流行发行时间: 2003年12月27日地区: 韩国语言: 朝鲜语
  • 类  别  音乐
  • 小  类  日韩音乐


  • 详细介绍简介: 专辑简介:
    这队来自SM Entertainment的男子情歌组合首张细碟推出后50天,瞬即登上韩国电视台MBC音乐节目「Music Camp」流行榜榜首,以新人来说,如此声势可谓锐不可当。
    主打歌「HUG」,由五位成员各独唱一段;另一主打作品「My little princess」有感性独白,旋律清新;BoA客串演绎的「Oh Holy Night」及「My Little Princess」(Acappella)则以清唱哼鸣方式演绎,都是大胆尝试,值得细听。
    东方神起是韩国一队新崛起的五人男子情歌组合,不知各位对他们的处男专辑《Dong Bang Shin Ki Single–Hug》抱有甚么期望呢?论形象,他们亦走型格偶像路线,每人都穿上黑色皮夹,配合ballad式的情歌,整个配套与策略应可稳中求胜!
    主打歌「HUG」,由五位成员各独唱一段,五位之中,以成员英雄的声音最为清晰有力,而Micky 的声音则较为感性。「Hug」的曲调颇为重复,显然在耐听程度未必及得上接力主打「My little princess」,此曲有感性独白,而且旋律亦留有足够空间予乐迷去想象。
    两首分别以清唱哼鸣方式演绎的曲目,「Oh Holy Night」及「My Little Princess」(Acappella)都是大胆尝试,前者虽有BoA客串演绎,不过由于BoA在歌曲后段才加入,而且Acappella方式的演唱亦并非BoA的强项,所以效果着实一般,并没有预期的震撼!「My Little Princess」(Acappella)亦将曲子拖得颇慢,反而破坏了原版本的完整感觉,不过五位成员交替演唱,难度亦是不少的,以首张细碟来说,已经不算欺场了。下载完成后请各位亲自行检测音质,如有问题的话M我。
    还有愿意的亲能否+我新建的仙后群:23845795(超级群哦)
    还有喷子们别再做下了资源又骂人的不道德的行为,毕竟这里不是论坛!
  • 东方神起(동방신기) -《Hug》单曲[APE]_large

精选评论

Exact Audio Copy V0.99 prebeta 5 from 4. May 2009

EAC 抓取日志文件从10. 二月 2010, 12:37

未知艺术家 / 未知标题

使用驱动器 :Optiarc DVD RW AD-7700S Adapter: 0 ID: 1

读取模式 : 暴发

读取偏移校正 : 0
读取 Lead-In 和 Lead-Out : 否
用静音填充抓取中丢失偏移的采样 : 是
去除首尾静音块 : 否
在 CRC 计算中使用了空样本 : 否
已用接口 : Win NT 及 2000 本地 Win32 接口

所用输出格式 : 内部 WAV 函数
样本格式 : 44.100 Hz;16 Bit;立体声


被抓轨 CD 的 TOC

音轨 | 开始 | 长度 | 起始扇区 | 结尾扇区
--------------------------------------------------
1 | 0:00.00 | 3:48.72 | 0 | 17171
2 | 3:48.72 | 3:51.43 | 17172 | 34539
3 | 7:40.40 | 3:11.35 | 34540 | 48899
4 | 10:52.00 | 2:23.15 | 48900 | 59639
5 | 13:15.15 | 3:48.07 | 59640 | 76746
6 | 19:35.22 | 1:31.73 | 88147 | 95044


范围状态及错误

已选择范围

文件名 G:Hug.wav

计时问题 0:00:11

峰值电平 99.8 %
复制 CRC 66281A36
复制结束

没有错误发生

状态报告结尾
PERFORMER "未知艺术家"
TITLE "The 1st Single Hug"
REM DISCID 4904F306
REM COMMENT "ExactAudioCopy v0.99pb5"
FILE "东方神起.-.[The 1st Single Hug].(APE).单曲.ape" WAVE
TRACK 01 AUDIO
TITLE "1.Hug(??)"
PERFORMER "????"
REM DATE 2003
INDEX 01 00:00:00
TRACK 02 AUDIO
TITLE "2.My Little Princess (????...)"
PERFORMER "????"
REM DATE 2003
INDEX 01 03:48:72
TRACK 03 AUDIO
TITLE "3.Oh Holy Night (Feat BoA)"
PERFORMER "????"
REM DATE 2003
INDEX 01 07:40:40
TRACK 04 AUDIO
TITLE "4.My Little Princess(Acappella)"
PERFORMER "????"
REM DATE 2003
INDEX 01 10:52:00
TRACK 05 AUDIO
TITLE "5.Hug(??) (Instumental)"
PERFORMER "????"
REM DATE 2003
INDEX 01 13:15:15
那啥~文件名应该是“东方神起(동방신기).-.[The.1st.Single.Hug].单曲.(APE).ape”、“东方神起(동방신기).-.[The.1st.Single.Hug].单曲.(APE).cue”,之于log贴到回贴出就行了,不用放到下载文件中

是“专辑介绍”不是“专辑简介”

版本填为“单曲”
支持一下~~~
当年也是疯狂来着~
我妹妹很喜欢她们,总听她们的歌,上网看他们的东西.

自从爱上5只后,我妹妹越来越聪明了,

再也不花痴了,

也不再胡思乱想了,

神奇的是智商也大大提高,

成绩也开始慢慢好转,

文化水平倍儿棒, 对国学也慢慢感兴趣了,再也不哈韩哈日了,

对影视的欣赏能力也有所提高,

现在对偶像剧,反转剧一点兴趣都没有,

反而喜欢上了平时瞥都不瞥一眼的优秀的有深刻意义的电影,

她说这些电影能掠过人的内心,启迪智慧,

现在啊,她特别欣赏中国的男人,一心认为中国男人不是其他所能比的。



我心里特别高兴,

由衷的道:5只好样的!!

呵呵是吗,恭喜下。我的理念是:爱国还是要爱的,至于5只以及其他国外的音乐那是另外一回事情。
说解散了么 怎么回事
以前下过的,纯顶!
神起音乐专辑的无损格式非常少,在此谢楼辛苦抓盘、无私分享!