比莉哈乐黛 Billie Holiday -《真实的我精选》(Me Myself And I)HDCD[APE]

比莉哈乐黛 Billie Holiday -《真实的我精选》(Me Myself And I)HDCD[APE]
  • 片  名  比莉哈乐黛 Billie Holiday -《真实的我精选》(Me Myself And I)HDCD[APE]
  • 简  介  发行时间: 2002年地区: 美国语言: 英语
  • 类  别  音乐
  • 小  类  欧美音乐


  • 详细介绍专辑英文名: Me Myself And I专辑中文名: 真实的我精选歌手: 比莉哈乐黛 Billie Holiday资源格式: APE版本: HDCD发行时间: 2002年地区: 美国语言: 英语简介:
    专辑名称:Me Myself And I
    专辑歌手:Billie Holiday
    发行日期:2002
    专辑语种:英语
    专辑类型:JAZZ
    唱片公司:BMG
    专辑介绍:
    在本张Billie Holiday的纪念专辑《Me Myself And I 》之中收录了十余首Billie Holiday在三十年代所演唱的歌曲,每一首都是爵士乐迷耳熟能详的爵士名曲,其中包括了 The Man I Love 、 Night and day 等等家喻户晓的经典歌曲,让人爱不释手
    Georgia on my mind 一曲在Billie Holiday的诠释之下,浓郁得化不开的Swing感取代了原本的Dixieland风味,却反而令人更加惊绝不已。听Billie Holiday唱 Yesterday 一曲绝对会让很多感情丰富的听众热泪盈框,苦中带酸的唱腔娓娓道出无限的怀念和遗憾令人感动不已。在Billie Holiday的招版歌曲 The Man I Love 中听众朋友还可以同时欣赏到爵士乐萨克斯风大师Leater Young 的演奏,绝对是无上的音乐盛宴。
    据说很少有人在聆听Billy Holiday的现场后,不会感动落泪的,因为这位爵士乐界最具传奇色彩的歌后,在演唱时总辐散出字字句句心声泪痕;她的音乐感人之处源自肺腑,而非唱腔表面的雕饰,因为,永远被无数后辈歌手视做最崇敬对象的比莉哈乐黛,确实是用她的悲剧性生命写下并吟唱出每一个音符。
      
    不平凡的人,似乎注定该有着不平凡的遭遇,生于1915年的比莉哈乐黛,呱呱坠地之时父母都还只是未成年的孩子,在没有父母关爱与暴力阴霾的环境下,十岁时惨遭强暴,不久又被卖为雏妓,十八岁的她就尝遍了人生的酸甜苦辣。然而多舛的血泪童年,并没有让比莉对人生抱持以怨怼的的态度,她不但没有自甘堕落,相反地,更磨炼出自我尊严的珍视与坚毅不服输的个性。在那个女性极受不平等对待的时代里,在酒馆当女侍谋生的比莉,对惯于轻视女性的男性酒客不屑一顾,也绝不会像其它女侍一样,卑微地捡取客人丢在桌上的赏钱。她的傲气与坚强,让萨克斯风好手,也是她一辈子最亲密的朋友—李斯特杨(Lester Young),为她冠上Lady Day(淑女黛小姐)的封号。比莉哈乐黛的歌声与其生平一样,是充满梦幻色彩的传奇,短暂44年的生涯,点滴都让乐迷无尽追思。
    一般所在服务器:DonkeyServer No2
    开机时间:周一至周五 18:00-22:00 周六、周日不定
  • 比莉哈乐黛 Billie Holiday -《真实的我精选》(Me Myself And I)HDCD[APE]_large

精选评论

谢谢楼主分享, 楼主能补一下cue文件的源吗?
自製的,做得不好請見諒!

PERFORMER "Billie Holiday"
TITLE "Billie Holiday-Me Myself And I專輯"
FILE "Billie Holiday-Me Myself And I專輯-APE.APE" WAVE
TRACK 01 AUDIO
TITLE "The Man I Love"
PERFORMER "Billie Holiday"
INDEX 01 00:00:00
TRACK 02 AUDIO
TITLE "Night and day"
PERFORMER "Billie Holiday"
INDEX 01 03:09:32
TRACK 03 AUDIO
TITLE "These foolish things"
PERFORMER "Billie Holiday"
INDEX 01 06:12:36
TRACK 04 AUDIO
TITLE "I cried for you"
PERFORMER "Billie Holiday"
INDEX 01 09:35:52
TRACK 05 AUDIO
TITLE "No regrets"
PERFORMER "Billie Holiday"
INDEX 01 12:51:67
TRACK 06 AUDIO
TITLE "Mean to me"
PERFORMER "Billie Holiday"
INDEX 01 15:31:57
TRACK 07 AUDIO
TITLE "Me myself and I"
PERFORMER "Billie Holiday"
INDEX 01 18:41:74
TRACK 08 AUDIO
TITLE "She's funny that way"
PERFORMER "Billie Holiday"
INDEX 01 21:22:30
TRACK 09 AUDIO
TITLE "Mon homme"
PERFORMER "Billie Holiday"
INDEX 01 24:04:68
TRACK 10 AUDIO
TITLE "Can't help lovin'dat man"
PERFORMER "Billie Holiday"
INDEX 01 27:10:71
TRACK 11 AUDIO
TITLE "You go to my head"
PERFORMER "Billie Holiday"
INDEX 01 30:30:25
TRACK 12 AUDIO
TITLE "I can't get started"
PERFORMER "Billie Holiday"
INDEX 01 33:26:16
TRACK 13 AUDIO
TITLE "April in my heart"
PERFORMER "Billie Holiday"
INDEX 01 36:15:46
TRACK 14 AUDIO
TITLE "More than you know"
PERFORMER "Billie Holiday"
INDEX 01 39:30:28
TRACK 15 AUDIO
TITLE "Yesterdays"
PERFORMER "Billie Holiday"
INDEX 01 42:38:66
TRACK 16 AUDIO
TITLE "Georgia on my mind"
PERFORMER "Billie Holiday"
INDEX 01 45:40:49
感谢楼主!!
收藏
HOHO终于找倒了.哈哈
谢谢footfetishCD
i'd say , amazing voice , amazing music/
谢谢footfetishCD分享!!
很喜欢爵士乐,谢谢LZ的分享!


呵呵呵...不客氣囉!
经典 楼主多多放源吧!没源 楼主捎着补一下cue文件的源吧 也没源了!