玉置浩二(Koji Tamaki) -《安全地带》专辑(引进版)[FLAC]

玉置浩二(Koji Tamaki) -《安全地带》专辑(引进版)[FLAC]
  • 片  名  玉置浩二(Koji Tamaki) -《安全地带》专辑(引进版)[FLAC]
  • 简  介  音乐风格: 流行发行时间: 1996年地区: 大陆语言: 日语
  • 类  别  音乐
  • 小  类  日韩音乐


  • 详细介绍专辑中文名: 安全地带歌手: 玉置浩二(Koji Tamaki)音乐风格: 流行资源格式: FLAC版本: 专辑(引进版)发行时间: 1996年地区: 大陆语言: 日语简介: 专辑介绍:
    安全地带乐队于一九七三年由五位有才华的音乐人在日本北海道旭川市成立。乐队于一九八二年东京正式进军日本艺能界。这乐队在八十年代日本音乐市场上被视为“流行乐队之王”!
    以玉置浩二为首的五人乐队“安全地带”在八十及九十年代的日本流行乐坛中不断写下辉煌的情歌战绩!写下200多首创作歌曲、900场的演唱会(包括香港及大陆),共动员230万人次……这样庞大的记录,蔚为日本歌坛之创举!
    松井五郎(安全地带词作者)的内心独白:
    过去的季节无法取回,被现实弄得精疲力竭的时候可以做为安慰,可是无法做为明天进取的力量。
    有时候,不是为了谁,只是流去,不管痛苦的时候,还是幸福的时候,这个时间都无法停留。
    心经常在试,自己所做的永远会相信吗?消失的每一个现在,都是毫无疑惑的存在吗?
    年轻失去时,想起过去即不再有冲劲是很恐惧的事,事实上是因为未完成的课题和持续
    的心情变得暧昧的关系,一定是从那时,感受开始变迟钝了。
    把几支歌集合起来,也许跟人家知道的有一点不一样吧,所以不是回忆,倒好像是第一次听到的。
    安全的地带,现在在某个地方吧。我寻找年轻时候的一些什么意义,不过答案恐怕要你们自己来找。
    本专辑为96年中唱上海公司引进版,由正东唱片有限公司提供版权。当年在新华书店花了一百多块大洋购得,现制作与大家共享。
  • 玉置浩二(Koji Tamaki) -《安全地带》专辑(引进版)[FLAC]_large

精选评论

第一次发帖,望管理员支持

楼主应该重视一下EAC设置:

EAC设置
http://www.VeryCD.com/groups/@g2381491/445687.topic

EAC偏移设置
http://board.VeryCD.com/t530158.html

NEC DVD_RW ND-4570A 读取偏移应是 +48
http://www.accuraterip.com/driveoffsets.htm
读取模式 :暴发

这个比较汗。。。
不好意思,第一次发,新手上路吗,重新制作在发。


多谢这位热心网友的指点!
今后会推广此方法的! XDD

好吧~ 等LZ重新制作后再加精华
帖子格式有点问题 代为修改一次
已按教程重新制作FLAC版本,正在上传,请管理员查看,好辛苦啊!
Exact Audio Copy V0.99 prebeta 4 from 23. January 2008

EAC 抓取日志文件从28. 四月 2009, 11:55

玉置浩二 / 安全地带

使用驱动器 :_NEC DVD_RW ND-4570A Adapter: 0 ID: 0

读取模式 : 保护
使用精确流 : 是
废除音频缓冲 : 是
使用 C2 指针 : 否

读取偏移校正 : 48
读取 Lead-In 和 Lead-Out : 否
用静音填充抓取中丢失偏移的采样 : 是
去除首尾静音块 : 否
在 CRC 计算中使用了空样本 : 否
已用接口 : Win NT 及 2000 本地 Win32 接口

所用输出格式 : 用户定义的编码器
已选比特率 : 1024 kBit/s
质量 : 高
添加 ID3 标签 : 否
命令行压缩器 : G:Program FilesFLACflac.exe
附加命令行参数 : [color=crimson]-V -8 -T "artist=%a" -T "title=%t" -T "album=%g" -T "date=%y" -T "tracknumber=%n" -T "genre=%m" %s


被抓轨 CD 的 TOC

音轨 | 开始 | 长度 | 起始扇区 | 结尾扇区
--------------------------------------------------
1 | 0:00.00 | 3:42.10 | 0 | 16659
2 | 3:42.10 | 3:16.27 | 16660 | 31386
3 | 6:58.37 | 4:37.10 | 31387 | 52171
4 | 11:35.47 | 4:01.05 | 52172 | 70251
5 | 15:36.52 | 3:40.33 | 70252 | 86784
6 | 19:17.10 | 2:46.00 | 86785 | 99234
7 | 22:03.10 | 3:28.32 | 99235 | 114866
8 | 25:31.42 | 2:53.58 | 114867 | 127899
9 | 28:25.25 | 3:32.67 | 127900 | 143866
10 | 31:58.17 | 2:59.65 | 143867 | 157356
11 | 34:58.07 | 3:49.45 | 157357 | 174576
12 | 38:47.52 | 4:22.43 | 174577 | 194269
13 | 43:10.20 | 2:17.14 | 194270 | 204558
14 | 45:27.34 | 4:01.48 | 204559 | 222681
15 | 49:29.07 | 3:59.55 | 222682 | 240661
16 | 53:28.62 | 2:30.58 | 240662 | 251969
17 | 55:59.45 | 1:36.70 | 251970 | 259239


范围状态及错误

已选择范围

文件名 G:上传玉置浩二 - 安全地带.wav

峰值电平 100.0 %
范围质量 100.0 %
复制 CRC 0E9227D7
复制成功

没有错误发生


AccurateRip 概要

音轨 1 数据库中未见
音轨 2 数据库中未见
音轨 3 数据库中未见
音轨 4 数据库中未见
音轨 5 数据库中未见
音轨 6 数据库中未见
音轨 7 数据库中未见
音轨 8 数据库中未见
音轨 9 数据库中未见
音轨 10 数据库中未见
音轨 11 数据库中未见
音轨 12 数据库中未见
音轨 13 数据库中未见
音轨 14 数据库中未见
音轨 15 数据库中未见
音轨 16 数据库中未见
音轨 17 数据库中未见

没有任何音轨出现在 AccurateRip 数据库中

状态报告结尾
楼主进步好快~
各位见笑了,初来乍到,望前辈指教!

学习!
多谢楼主 也正在向楼上各位学习
希望楼主能多发些安全地带的东西 真是太喜欢这支乐队了.....