刘德华 -《再说一次.我爱你》APE版本,保证音质[APE]

刘德华 -《再说一次.我爱你》APE版本,保证音质[APE]
  • 片  名  刘德华 -《再说一次.我爱你》APE版本,保证音质[APE]
  • 简  介  发行时间: 2005年08月04日地区: 香港语言: 普通话
  • 类  别  音乐
  • 小  类  华语音乐


  • 详细介绍专辑中文名: 再说一次.我爱你歌手: 刘德华资源格式: APE版本: APE版本,保证音质发行时间: 2005年08月04日地区: 香港语言: 普通话简介:
    专辑简介:
    萬眾矚目 一千多個日子的等待2005劉德華國語演唱大碟【再說一次 我愛你】繼【美麗的一天】 睽違三年全情歌“All About Love”力作2002劉德華國語大碟【美麗的一天】甫推出即受到歌迷大眾及媒體好評熱愛,之後劉德華的電影一次次交出亮麗成績,無間道、大隻佬、江湖、十面埋伏、天下無?092;的心意、最深切的嗓音、最直接的感動,藉著美麗的音符,與你共同領會純愛的甜蜜、苦楚、遺憾等種種經歷。
  • 刘德华 -《再说一次.我爱你》APE版本,保证音质[APE]_large

精选评论

APE,收藏了,多谢咯!
半年前下了cue错误,这次怎么样?再试试
哎···cue还是不行啊!那位DX帮忙解决一下吧,多谢了!
PERFORMER "劉德華"
TITLE "再說一次.我愛你"
FILE "刘德华.-.[再说一次.我爱你].专辑.(ape).ape" WAVE
TRACK 01 AUDIO
TITLE "再說一次我愛你"
PERFORMER "劉德華"
INDEX 01 00:00:00
TRACK 02 AUDIO
TITLE "狠心的一課"
PERFORMER "劉德華"
INDEX 01 04:38:10
TRACK 03 AUDIO
TITLE "未知數"
PERFORMER "劉德華"
INDEX 01 09:16:42
TRACK 04 AUDIO
TITLE "一個人"
PERFORMER "劉德華"
INDEX 01 13:12:20
TRACK 05 AUDIO
TITLE "單純女孩"
PERFORMER "劉德華"
INDEX 01 17:36:57
TRACK 06 AUDIO
TITLE "美人痛"
PERFORMER "劉德華"
INDEX 01 22:14:00
TRACK 07 AUDIO
TITLE "虹橋機場的咖啡廳"
PERFORMER "劉德華"
INDEX 01 27:22:20
TRACK 08 AUDIO
TITLE "苦命梁祝"
PERFORMER "劉德華"
INDEX 01 30:36:45
TRACK 09 AUDIO
TITLE "完美"
PERFORMER "劉德華"
INDEX 01 35:19:17
TRACK 10 AUDIO
TITLE "真心話"
PERFORMER "劉德華"
INDEX 01 39:00:60
多谢5楼的兄弟:-D
下了 那声音 不配谈音质 高音一塌糊涂
低音松松散散
路过~~~~~~~~~~
如果没有什么专业水平的 请勿乱评论 害的网友们想下载都模棱两可的
感谢楼主发布!
先听听看再来评论~!
没速度呢,,没速度呢。。谢谢
最喜欢华仔了!
惭愧 我居然没收有这种专辑. 希望还有源啊!